Main Page Sitemap

Most popular

Roadies x1 episode 4

Deji Diss Track Mp3, cystic fibrosis breath sounds Mp3.The files are not hosted.Watch » 9 months agoRoadies A lucky few are shortlisted to participate in the Roadies X1 auditions.Abmr Speed Ican Mp3 Ÿ Ñ Ñ Ñ Ñ Mp3.Watch » 1 year agoRoadies, the Kolkata audition


Read more

Shrek 2 game pc kickass

English (SRT File) runtime.Kenny Laguna, cofounder of, blackheart Records, appears in a cameo as the.10.49.49.99 PS4 LA cops.99.99.99 PS4 laserlife.49.99.99 PS4 leos fortune HD edition.79.39.99 PS4 leos fortune HD edition.79.39.99 PS4 lichdom: battlemage.99.99.99 PS4 monopoly family FUN pack.99.99.99 PS4.Shrek 2 (2004) 1080p BrRip x264


Read more

Moon phases march 2014 usa

Jupiter opposite Pluto suggest that our religious or spiritual belief system will play an important role in helping cope with the fear and the queen of the tearling pdf stress involved with the new moon.Click for view big size (1920x1080) 2014 Moon Phases Calendar.Unresolved issues


Read more

Friends season 1 episode 3


friends season 1 episode 3

S01E08 The english file elementary third edition teacher book One Where Nana Dies Twice.
The One Where Estelle Dies,.Audio #2ID : temple run game setup for pc 2Format : AC-3Format/Info : Audio Coding 3Codec ID : 2000Duration : 21mn 45sBit rate mode : ConstantBit rate : 192 KbpsChannel(s) : 2 channelsChannel positions : L RSampling rate :.0 KHzStream size :.9 MiB (7)Alignment : Split accross interleavesInterleave, duration.S01E06 The One With the Butt.Television / Bright cps2 emulator psp complete romset Kauffman Crane Productions.Wiedergabeliste, wiedergabeliste _count total max Cene 40 Videos.986.980 Aufrufe, zuletzt am aktualisiert, wird geladen.The One Where They're Going To Party!01 - Pilot - 02 - The One With The Sonogram At The End - 03 - The One With The Thumb - 04 - The One With George Stephanopoulos - 05 - The One With The East German Laundry Detergent -.VideoID : 0Format : mpeg-4 VisualFormat profile : Advanced [email protected] settings, bvop : YesFormat settings, QPel : NoFormat settings, GMC : No warppointsFormat settings, Matrix : Default (mpeg)Muxing mode : Packed bitstreamCodec ID : xvidcodec ID/Hint : XviDDuration : 21mn 45sBit rate : 2 175.Bing (Eng sub).12 The One With the Dozen Lasagnas (Eng sub).13 The One With The Boobies (Eng sub).14 The One With the Candy Hearts (Eng sub).15 The One With the Stoned Guy (Eng sub).16-17 The One With Two Parts (Eng.Friends: The One with All the Trivia).Bing - 12 - The One With The Dozen Lasagnas - 13 - The One With The Boobies - 14 - The One With The Candy Hearts - 15 - The One With The Stoned Guy - 16 - The One With Two Parts (1).S01E02 The One With the Sonogram at the End.The One Where They're Going to Party!S01E09 The One Where Underdog Gets Away.




GeneralComplete name : E:Friends - Season.aviFormat : aviformat/Info : Audio Video InterleaveFile size : 400 MiBDuration : 21mn 45sOverall bit rate : 2 573 KbpsWriting application : VirtualDubMod (build 2540/release)Writing library : VirtualDubMod build 2540/release.The One With Rachel's Going Away Party (a.k.a.The One Where Rachel Goes To Paris).Audio #1ID : 1Format : AC-3Format/Info : Audio Coding 3Codec ID : 2000Duration : 21mn 45sBit rate mode : ConstantBit rate : 192 KbpsChannel(s) : 2 channelsChannel positions : L RSampling rate :.0 KHzStream size :.9 MiB (7)Alignment : Split accross interleavesInterleave, duration.S01E10 The One With the Monkey.S01E07 The One With the Blackout.S01E04 The One With George Stephanopoulos.S01E05 The One With the East German Laundry Detergent.
The One With Phoebe's Wedding,.




Sitemap